I Kill Giants 2017 Movies 720p BluRay x264 5 1 with Sample ☻rDX☻ torrent download

seeders: 352
leechers: 423
updated:
Added ago by nehalpuja ***** in Movies
Torrent Downloaded 10 times.
Info Hash: 5E366987453B65658E13101301C4BC14C015FA1A


Torrent Files

I Kill Giants 2017 Movies 720p BluRay x264 5 1 with Sample ☻rDX☻ (Size: 1.0 GB)
  I Kill Giants 2017 Movies 720p BluRay x264 5 1 with Sample ☻rDX☻ 1.0 GB

Torrent Description



I Kill Giants 2017 Movies 720p BluRay x264 5.1 with Sample ☻rDX☻
===============================================================================================

SCREEN SHOTS:



or

http://iphonehosting.eu/2018/5/discount/1.html

File size : 1.02 GiB
Duration : 1 h 46 min
Overall bit rate : 1 377 kb/s
Movie name : I Kill Giants 2017 Movies 720p BluRay x264 5.1 ☻rDX☻

Video
ID : 2
Format : AVC
Format/Info : Advanced Video Codec
Format profile : [email protected]
Format settings, CABAC : Yes
Format settings, ReFrames : 4 frames
Codec ID : V_MPEG4/ISO/AVC
Duration : 1 h 46 min
Bit rate : 930 kb/s
Width : 1 280 pixels
Height : 536 pixels
Display aspect ratio : 2.40:1
Frame rate mode : Constant
Frame rate : 23.976 (24000/1001) FPS
Color space : YUV
Chroma subsampling : 4:2:0
Bit depth : 8 bits
Scan type : Progressive
Bits/(Pixel*Frame) : 0.057
Stream size : 686 MiB (65%)
Title : ☻rDX☻
Writing library : x264

Audio
ID : 1
Format : AC-3
Format/Info : Audio Coding 3
Mode extension : CM (complete main)
Format settings, Endianness : Big
Codec ID : A_AC3
Duration : 1 h 46 min
Bit rate mode : Constant
Bit rate : 448 kb/s
Channel(s) : 6 channels
Channel positions : Front: L C R, Side: L R, LFE
Sampling rate : 48.0 kHz
Frame rate : 31.250 FPS (1536 spf)
Bit depth : 16 bits
Compression mode : Lossy
Delay relative to video : -21 ms
Stream size : 341 MiB (33%)
Title : ☻rDX☻
Language : English
Default : No
Forced : No



IMDB : http://www.imdb.com/title/tt4547194



Related Torrents

torrent name size age seed leech
7.04 GB 4 minutes 742 47
1.21 GB 4 minutes 601 362
185.0 MB 2 minutes 275 361
1.22 GB 4 minutes 728 433
19.51 MB 4 minutes 170 351

Sharing Widget


Download torrent
1.0 GB
seeders:1214
leechers:386
I Kill Giants 2017 Movies 720p BluRay x264 5 1 with Sample ☻rDX☻



To share this torrent use the code below and insert it into comments, status messages, forum posts or your signature.

Torrent: I Kill Giants 2017 Movies 720p BluRay x264 5 1 with Sample ☻rDX☻

Comments

Latest Searches