LOL (2012) 720p BRrip x264 Dual [Hindi + English] ESub MovCr torrent download

seeders: 314
leechers: 379
updated:
Added ago by MovCr ***** in Movies
Torrent Downloaded 10 times.
Info Hash: 074E9945921F88616F9297577BA11C8C937A0B30


Torrent Files

LOL (2012) 720p - BRrip - x264 - Dual - [Hindi + English] - ESub - MovCr (Size: 739.0 MB)
  LOL (2012) 720p - BRrip - x264 - Dual - [Hindi + English] - ESub - MovCr 739.0 MB

Torrent Description



http://movcr.com

LOL (2012) 720p - BRrip - x264 - Dual - [Hindi + English] - ESub - MovCr


Video
ID : 1
Format : AVC
Format/Info : Advanced Video Codec
Format profile : [email protected]
Format settings, CABAC : Yes
Format settings, ReFrames : 7 frames
Codec ID : V_MPEG4/ISO/AVC
Duration : 1 h 36 min
Bit rate : 841 kb/s
Width : 1 280 pixels
Height : 536 pixels
Display aspect ratio : 2.40:1
Frame rate mode : Constant
Frame rate : 23.976 (24000/1001) FPS
Color space : YUV
Chroma subsampling : 4:2:0
Bit depth : 8 bits
Scan type : Progressive
Bits/(Pixel*Frame) : 0.051
Stream size : 582 MiB (79%)
Title : www.MovCr.com
Writing library : x264 core 120 r2164 da19765
Encoding settings : cabac=1 / ref=7 / deblock=1:0:0 / analyse=0x3:0x113 / me=umh / subme=8 / psy=1 / psy_rd=1.00:0.15 / mixed_ref=1 / me_range=18 / chroma_me=1 / trellis=1 / 8x8dct=1 / cqm=0 / deadzone=21,11 / fast_pskip=1 / chroma_qp_offset=-3 / threads=6 / sliced_threads=0 / nr=0 / decimate=1 / interlaced=0 / bluray_compat=0 / constrained_intra=0 / bframes=3 / b_pyramid=2 / b_adapt=2 / b_bias=0 / direct=3 / weightb=1 / open_gop=0 / weightp=2 / keyint=240 / keyint_min=23 / scenecut=40 / intra_refresh=0 / rc_lookahead=50 / rc=2pass / mbtree=1 / bitrate=841 / ratetol=1.0 / qcomp=0.60 / qpmin=10 / qpmax=51 / qpstep=4 / cplxblur=20.0 / qblur=0.5 / ip_ratio=1.40 / aq=1:1.00
Default : Yes
Forced : No

Audio #1
ID : 2
Format : AAC
Format/Info : Advanced Audio Codec
Format profile : LC
Codec ID : A_AAC
Duration : 1 h 36 min
Bit rate : 128 kb/s
Channel(s) : 2 channels
Channel positions : Front: L R
Sampling rate : 48.0 kHz
Frame rate : 46.875 FPS (1024 spf)
Compression mode : Lossy
Stream size : 88.5 MiB (12%)
Title : www.MovCr.com
Language : Hindi
Default : Yes
Forced : No

Audio #2
ID : 3
Format : AAC
Format/Info : Advanced Audio Codec
Format profile : LC
Codec ID : A_AAC
Duration : 1 h 37 min
Bit rate : 96.0 kb/s
Channel(s) : 2 channels
Channel positions : Front: L R
Sampling rate : 48.0 kHz
Frame rate : 46.875 FPS (1024 spf)
Compression mode : Lossy
Stream size : 66.4 MiB (9%)
Title : www.MovCr.com
Language : English
Default : No
Forced : No

Text
ID : 4
Format : UTF-8
Codec ID : S_TEXT/UTF8
Codec ID/Info : UTF-8 Plain Text
Duration : 1 h 30 min
Bit rate : 63 b/s
Count of elements : 1233
Stream size : 41.9 KiB (0%)
Title : www.MovCr.com
Default : Yes
Forced : No




Related Torrents

torrent name size age seed leech
118.2 MB 8 minutes 709 228
2.6 MB 8 minutes 659 167
51.7 MB 8 minutes 302 467
9.8 GB 8 minutes 677 369
1.6 MB 8 minutes 121 495

Sharing Widget


Download torrent
739.0 MB
seeders:1214
leechers:386
LOL (2012) 720p - BRrip - x264 - Dual - [Hindi + English] - ESub - MovCr



To share this torrent use the code below and insert it into comments, status messages, forum posts or your signature.

Torrent: LOL (2012) 720p - BRrip - x264 - Dual - [Hindi + English] - ESub - MovCr

Comments

Latest Searches