Maya The Bee The Honey Games 2018 720p BluRay x264 AC3 RiPRG torrent download

seeders: 175
leechers: 221
updated:
Added ago by lyrical2010 ***** in Movies
Torrent Downloaded 10 times.
Info Hash: 88F7349AEA2FCF359BB1A17A8C085967F862D85D


Torrent Files

Maya The Bee The Honey Games 2018 720p BluRay x264 AC3-RiPRG (Size: 1.6 GB)
  Maya The Bee The Honey Games 2018 720p BluRay x264 AC3-RiPRG 1.6 GB

Torrent Description





Maya.The.Bee.The.Honey.Games.2018.720p.BluRay.x264.AC3-RiPRG

When an overenthusiastic Maya accidentally embarrasses the Empress of Buzztropolis, she is forced to unite with a team of misfit bugs and compete in the Honey Games for a chance to save her hive.

http://www.imdb.com/title/tt6685596/

General

Format : Matroska
Format version : Version 4 / Version 2
File size : 1.84 GiB
Duration : 1h 36mn
Overall bit rate : 2 734 Kbps
Movie name : RiPRG

VideoGeneral

Format : Matroska
Format version : Version 4 / Version 2
File size : 1.61 GiB
Duration : 1h 24mn
Overall bit rate : 2 718 Kbps
Movie name : RiPRG

Video

Format : AVC
Format/Info : Advanced Video Codec
Format profile : [email protected]
Format settings, CABAC : Yes
Format settings, ReFrames : 4 frames
Codec ID : V_MPEG4/ISO/AVC
Duration : 1h 24mn
Bit rate : 2 500 Kbps
Width : 1 280 pixels
Height : 696 pixels
Display aspect ratio : 1.85:1
Frame rate mode : Constant
Frame rate : 23.976 fps
Color space : YUV
Chroma subsampling : 4:2:0
Bit depth : 8 bits
Scan type : Progressive
Bits/(Pixel*Frame) : 0.117
Stream size : 1.45 GiB (90%)
Writing library : x264 core 148
Default : Yes
Forced : No
Color primaries : BT.709
Transfer characteristics : BT.709
Matrix coefficients : BT.709

Audio

Format : AC-3
Format/Info : Audio Coding 3
Mode extension : CM (complete main)
Format settings, Endianness : Big
Codec ID : A_AC3
Duration : 1h 24mn
Bit rate mode : Constant
Bit rate : 224 Kbps
Channel(s) : 6 channels
Channel positions : Front: L C R, Side: L R, LFE
Sampling rate : 48.0 KHz
Bit depth : 16 bits
Compression mode : Lossy
Delay relative to video : -5ms
Stream size : 136 MiB (8%)
Title : Surround
Language : English
Default : Yes
Forced : No




Related Torrents

torrent name size age seed leech
8.0 MB 1 minute 80 406
406.8 MB 1 minute 366 455
670.0 MB 1 minute 704 419
213.3 MB 1 minute 496 251
12.1 MB 1 minute 744 446

Sharing Widget


Download torrent
1.6 GB
seeders:1214
leechers:386
Maya The Bee The Honey Games 2018 720p BluRay x264 AC3-RiPRG



To share this torrent use the code below and insert it into comments, status messages, forum posts or your signature.

Torrent: Maya The Bee The Honey Games 2018 720p BluRay x264 AC3-RiPRG

Comments

Latest Searches