Maya The Bee The Honey Games 2018 Movies 720p BluRay x264 5 1 with Sample ☻rDX☻ torrent download

seeders: 215
leechers: 310
updated:
Added ago by nehalpuja ***** in Movies
Torrent Downloaded 10 times.
Info Hash: 336EA48585F7E4BC6F4AA24D4F9495E6CA45FF49


Torrent Files

Maya The Bee The Honey Games 2018 Movies 720p BluRay x264 5 1 with Sample ☻rDX☻ (Size: 830.9 MB)
  Maya The Bee The Honey Games 2018 Movies 720p BluRay x264 5 1 with Sample ☻rDX☻ 830.9 MB

Torrent Description



Maya The Bee The Honey Games 2018 Movies 720p BluRay x264 5.1 with Sample ☻rDX☻
===============================================================================================

SCREEN SHOTS:



or

http://iphonehosting.eu/2018/5/doctor/1.html

File size : 822 MiB
Duration : 1 h 24 min
Overall bit rate : 1 356 kb/s
Movie name : Maya The Bee The Honey Games 2018 Movies 720p BluRay x264 5.1 ☻rDX☻

Video
ID : 2
Format : AVC
Format/Info : Advanced Video Codec
Format profile : [email protected]
Format settings, CABAC : Yes
Format settings, ReFrames : 4 frames
Codec ID : V_MPEG4/ISO/AVC
Duration : 1 h 24 min
Bit rate : 906 kb/s
Width : 1 280 pixels
Height : 696 pixels
Display aspect ratio : 1.85:1
Frame rate mode : Constant
Frame rate : 23.976 (24000/1001) FPS
Color space : YUV
Chroma subsampling : 4:2:0
Bit depth : 8 bits
Scan type : Progressive
Bits/(Pixel*Frame) : 0.042
Stream size : 534 MiB (65%)
Title : ☻rDX☻
Writing library : x264

Audio
ID : 1
Format : AC-3
Format/Info : Audio Coding 3
Mode extension : CM (complete main)
Format settings, Endianness : Big
Codec ID : A_AC3
Duration : 1 h 24 min
Bit rate mode : Constant
Bit rate : 448 kb/s
Channel(s) : 6 channels
Channel positions : Front: L C R, Side: L R, LFE
Sampling rate : 48.0 kHz
Frame rate : 31.250 FPS (1536 spf)
Bit depth : 16 bits
Compression mode : Lossy
Delay relative to video : -21 ms
Stream size : 272 MiB (33%)
Title : ☻rDX☻
Language : English
Default : No
Forced : No



IMDB : http://www.imdb.com/title/tt6685596



Related Torrents

torrent name size age seed leech
1.6 GB 49 seconds 15 177
ABS-127 mp4
Posted by   Guest  in  Video
476.9 MB 49 seconds 135 46
9STP1714
Posted by   Guest  in  Video
130.4 MB 49 seconds 732 486
2.1 MB 49 seconds 219 367
19.9 MB 49 seconds 487 259

Sharing Widget


Download torrent
830.9 MB
seeders:1214
leechers:386
Maya The Bee The Honey Games 2018 Movies 720p BluRay x264 5 1 with Sample ☻rDX☻



To share this torrent use the code below and insert it into comments, status messages, forum posts or your signature.

Torrent: Maya The Bee The Honey Games 2018 Movies 720p BluRay x264 5 1 with Sample ☻rDX☻

Comments

Latest Searches