Timeless (2016) S02E10 (1080p AMZN WEB DL x265 HEVC 10bit AAC 5 1 Qman) [UTR] torrent download

seeders: 89
leechers: 127
updated:
Added ago by UTRCorp ***** in TV
Torrent Downloaded 10 times.
Info Hash: 746134D968C3E4F8065A8DBE34050DB0F1C60235


Torrent Files

Timeless (2016) S02E10 (1080p AMZN WEB-DL x265 HEVC 10bit AAC 5 1 Qman) [UTR] (Size: 323.2 MB)
  Timeless (2016) S02E10 (1080p AMZN WEB-DL x265 HEVC 10bit AAC 5 1 Qman) [UTR] 323.2 MB

Torrent Description










Media Information

Media Information

Code:

General
Format : Matroska
Format version : Version 4 / Version 2
File size : 323 MiB
Duration : 43 min 1 s
Overall bit rate : 1 050 kb/s
Encoded date : UTC 2018-05-15 17:00:36
Writing application : mkvmerge v23.0.0 ('The Bride Said No') 64-bit
Writing library : libebml v1.3.6 + libmatroska v1.4.9

Video
ID : 1
Format : HEVC
Format/Info : High Efficiency Video Coding
Format profile : Main [email protected]@Main
Codec ID : V_MPEGH/ISO/HEVC
Duration : 43 min 1 s
Bit rate : 856 kb/s
Width : 1 920 pixels
Height : 1 080 pixels
Display aspect ratio : 16:9
Frame rate mode : Constant
Frame rate : 23.976 (24000/1001) FPS
Color space : YUV
Chroma subsampling : 4:2:0
Bit depth : 10 bits
Bits/(Pixel*Frame) : 0.017
Stream size : 264 MiB (82%)
Writing library : x265 2.7+344-091f07265371:[Windows][MSVC 1914][64 bit] 10bit
Encoding settings : cpuid=1111039 / frame-threads=4 / numa-pools=16 / wpp / no-pmode / no-pme / no-psnr / no-ssim / log-level=2 / input-csp=1 / input-res=1920x1080 / interlace=0 / total-frames=61883 / level-idc=0 / high-tier=1 / uhd-bd=0 / ref=3 / no-allow-non-conformance / no-repeat-headers / annexb / no-aud / no-hrd / info / hash=0 / no-temporal-layers / open-gop / min-keyint=23 / keyint=250 / gop-lookahead=0 / bframes=4 / b-adapt=2 / b-pyramid / bframe-bias=0 / rc-lookahead=20 / lookahead-slices=6 / scenecut=40 / radl=0 / no-intra-refresh / ctu=64 / min-cu-size=8 / no-rect / no-amp / max-tu-size=32 / tu-inter-depth=1 / tu-intra-depth=1 / limit-tu=0 / rdoq-level=1 / dynamic-rd=0.00 / no-ssim-rd / signhide / no-tskip / nr-intra=0 / nr-inter=0 / no-constrained-intra / no-strong-intra-smoothing / max-merge=2 / limit-refs=3 / no-limit-modes / me=3 / subme=2 / merange=57 / temporal-mvp / weightp / no-weightb / no-analyze-src-pics / deblock=-1:-1 / sao / no-sao-non-deblock / rd=3 / no-early-skip / rskip / no-fast-intra / no-tskip-fast / no-cu-lossless / no-b-intra / no-splitrd-skip / rdpenalty=0 / psy-rd=0.35 / psy-rdoq=0.00 / no-rd-refine / no-lossless / cbqpoffs=0 / crqpoffs=0 / rc=crf / crf=24.0 / qcomp=0.60 / qpstep=4 / stats-write=0 / stats-read=0 / ipratio=1.40 / pbratio=1.30 / aq-mode=3 / aq-strength=1.00 / cutree / zone-count=0 / no-strict-cbr / qg-size=32 / no-rc-grain / qpmax=69 / qpmin=0 / no-const-vbv / sar=0 / overscan=0 / videoformat=5 / range=0 / colorprim=2 / transfer=2 / colormatrix=2 / chromaloc=0 / display-window=0 / max-cll=0,0 / min-luma=0 / max-luma=1023 / log2-max-poc-lsb=8 / vui-timing-info / vui-hrd-info / slices=1 / no-opt-qp-pps / no-opt-ref-list-length-pps / no-multi-pass-opt-rps / scenecut-bias=0.05 / no-opt-cu-delta-qp / no-aq-motion / no-hdr / no-hdr-opt / no-dhdr10-opt / no-idr-recovery-sei / analysis-reuse-level=5 / scale-factor=0 / refine-intra=0 / refine-inter=0 / refine-mv=0 / no-limit-sao / ctu-info=0 / no-lowpass-dct / refine-mv-type=0 / copy-pic=1 / max-ausize-factor=1.0 / no-dynamic-refine / no-single-sei
Language : English
Default : Yes
Forced : No

Audio
ID : 2
Format : AAC
Format/Info : Advanced Audio Codec
Format profile : HE-AAC / LC
Codec ID : A_AAC
Duration : 43 min 0 s
Bit rate : 192 kb/s
Channel(s) : 6 channels
Channel positions : Front: L C R, Side: L R, LFE
Sampling rate : 48.0 kHz / 24.0 kHz
Frame rate : 23.438 FPS (1024 spf)
Compression mode : Lossy
Delay relative to video : 34 ms
Stream size : 59.1 MiB (18%)
Language : English
Default : Yes
Forced : No

Subtitle
ID : 3
Format : UTF-8
Codec ID : S_TEXT/UTF8
Codec ID/Info : UTF-8 Plain Text
Duration : 42 min 20 s
Bit rate : 66 b/s
Count of elements : 685
Stream size : 20.7 KiB (0%)
Language : English
Default : Yes
Forced : No



Source Information

Code:

Release:
Unknown Source/NO-GROUP




Related Torrents

torrent name size age seed leech
220.5 MB 23 seconds 421 2
56.0 MB 23 seconds 100 375
368.8 MB 23 seconds 245 326
247.9 MB 23 seconds 729 271
446.72 MB 1 minute 306 137

Sharing Widget


Download torrent
323.2 MB
seeders:1214
leechers:386
Timeless (2016) S02E10 (1080p AMZN WEB-DL x265 HEVC 10bit AAC 5 1 Qman) [UTR]



To share this torrent use the code below and insert it into comments, status messages, forum posts or your signature.

Torrent: Timeless (2016) S02E10 (1080p AMZN WEB-DL x265 HEVC 10bit AAC 5 1 Qman) [UTR]

Comments

Latest Searches